The Bar Mitzvah | ... And Finally: Black Bolt | Sanson BluRay 1080p

2013Zone For Latest Downloads

 
     
 
Legal Downloads » Music » VA - Come Together: A Soul/Jazz Tribute To The Beatles (2005)
Menu
Home Applications
Games Movies
Music TV Shows
Torrents Graphics

Sitemap

RSS
 
Advanced Search
Last News
Site Info
Top Contributors:
  1    supper88 32766
  2    admin 32751
  3    Whisky 10080
  4    Shark_ 8911
  5    creativelivenew 8706
  6    whathesupa 2799
  7    candymypost 840
  8    hvnteam 629
  9    vuong87 3


Articles:
  This Hour: 0
  Today: 0
  This Month: 35
  All Time: 515454


Torrents:
  Today: 0
  Yesterday: 0
  All Time: 156715


Membership:
  Registered Today :0
  This Hour:0
  This Month:0
  Total:14
  Banned:1

{online}
{inform_torrent}
Friend:
Full Download Scripts
Torrent Download
Trend
Trend

Search In Site

Music : VA - Come Together: A Soul/Jazz Tribute To The Beatles (2005)
 
http://i70.fastpic.ru/big/2015/0914/49/284668c0fa364bcbe7daa4178de5ee49.jpg

VA - Come Together: A Soul/Jazz Tribute To The Beatles (2005)
EAC Rip | FLAC (Img) + Cue + Log ~ 351 Mb | MP3 CBR320 ~ 143 Mb
Scans Included (JPG, 400 dpi) | RAR 5% Recovery
R&B, Jazz | Koch Records #KOC-CD-9981


All Music
***************

http://i72.fastpic.ru/big/2015/0914/3d/8dd15232c68e9e547b28bd23fd82b33d.jpg

Track List:

01. Herbie Mann and Tomiko Jones/Day Tripper [02:34]
02. Little Richard/I Saw Her Standing There [03:29]
03. Clarence Wheeler and the Enforcers/Hey Jude [07:58]
04. Ella Fitzgerald/Got To Get You Into My Life [03:06]
05. Aretha Franklin/Let It Be [03:30]
06. Charles Wright/Here Comes The Sun [04:58]
07. Arif Martin/Glass onion [02:45]
08. The Meters/Come Together [03:10]
09. Carmin McCrae/Carry That Weight [02:45]
10. Black Heat/Drive My Car [03:10]
11. King Curtis/And I Love Her [02:26]
12. Wade Marcus/Something [03:36]
13. Aretha Franklin/A Long and Winding Road [03:37]
14. David Fathead Newman/Yesterday [04:02]

Exact Audio Copy V1.0 beta 3 from 29. August 2011

EAC extraction logfile from 1. September 2015, 6:00

Various / Come Together - A Soul & Jazz Tribute to the Beatles

Used drive : PIONEER BD-RW BDR-TD03 Adapter: 0 ID: 1

Read mode : Secure
Utilize accurate stream : Yes
Defeat audio cache : Yes
Make use of C2 pointers : No

Read offset correction

: 667
Overread into Lead-In and Lead-Out : No
Fill up missing offset samples with silence : Yes
Delete leading and trailing silent blocks : No
Null samples used in CRC calculations : Yes
Used interface
: Native Win32 interface for Win NT & 2000

Used output format : User Defined Encoder
Selected bitrate : 768 kBit/s
Quality : High
Add ID3 tag : No
Command line compressor : C:\Program Files (x86)\Exact Audio Copy\FLAC\FLAC.EXE
Additional command line options : -6 -V -T "ARTIST=%artist%" -T "TITLE=%title%" -T "ALBUM=%albumtitle%" -T "DATE=%year%" -T "TRACKNUMBER=%tracknr%" -T "GENRE=%genre%" -T "COMMENT=%comment%" -T "BAND=%albuminterpret%" -T "ALBUMARTIST=%albuminterpret%" -T "COMPOSER=%composer%" %haslyrics%--tag-from-file=LYRICS="%lyricsfile%"%haslyrics% -T "DISCNUMBER=%cdnumber%" -T "TOTALDISCS=%totalcds%" -T "TOTALTRACKS=%numtracks%" %hascover%--picture="%coverfile%"%hascover% %source% -o %dest%

TOC of the extracted CD Track | Start | Length | Start sector | End sector
--1 | 0:00.00 | 2:33.57 | 0 | 11531 2 | 2:33.57 | 3:28.42 | 11532 | 27173 3 | 6:02.24 | 7:57.12 | 27174 | 62960 4 | 13:59.36 | 3:05.31 | 62961 | 76866 5 | 17:04.67 | 3:29.56 | 76867 | 92597 6 | 20:34.48 | 4:57.48 | 92598 | 114920 7 | 25:32.21 | 2:44.07 | 114921 | 127227 8 | 28:16.28 | 3:09.50 | 127228 | 141452 9 | 31:26.03 | 2:44.12 | 141453 | 153764
10 | 34:10.15 | 3:09.64 | 153765 | 168003
11 | 37:20.04 | 2:25.07 | 168004 | 178885
12 | 39:45.11 | 3:35.50 | 178886 | 195060
13 | 43:20.61 | 3:36.34 | 195061 | 211294
14 | 46:57.20 | 4:01.38 | 211295 | 229407

Range status and errors

Selected range Filename C:\Users\Deris\Desktop\JazBeat\Various - Come Together - A Soul & Jazz Tribute to the Beatles.wav Peak level 97.7 %
Extraction speed 1.7 X
Range quality 99.9 %
Test CRC A9CB55AD
Copy CRC A9CB55AD
Copy OK

No errors occurred


AccurateRip summary

Track 1 accurately ripped (confidence 1) [3A7B521E] (AR v1)
Track 2 accurately ripped (confidence 1) [66928DFD] (AR v1)
Track 3 accurately ripped (confidence 1) [EF6F8957] (AR v1)
Track 4 accurately ripped (confidence 1) [90BEF8CF] (AR v1)
Track 5 accurately ripped (confidence 1) [A9988889] (AR v1)
Track 6 accurately ripped (confidence 1) [F80BAD03] (AR v1)
Track 7 accurately ripped (confidence 1) [6C4A51C2] (AR v1)
Track 8 accurately ripped (confidence 1) [4F214CBC] (AR v1)
Track 9 accurately ripped (confidence 1) [23D0BBFF] (AR v1)
Track 10 cannot be verified as accurate (confidence 1) [5CCB7378], AccurateRip returned [65526C60] (AR v2)
Track 11 accurately ripped (confidence 1) [DE08A110] (AR v1)
Track 12 accurately ripped (confidence 1) [E82CB428] (AR v1)
Track 13 cannot be verified as accurate (confidence 1) [08E83FD9], AccurateRip returned [FB54D041] (AR v2)
Track 14 cannot be verified as accurate (confidence 1) [755D5EEB], AccurateRip returned [E5B03410] (AR v2)

11 track(s) accurately ripped
3 track(s) could not be verified as accurate

Some tracks could not be verified as accurate

End of status report

- CUETools DB Plugin V2.1.3

[CTDB TOCID: .nGftcW0wvV7_vcDN4QkuIL9SqM-] found, Submit result: already submitted
[fb833385] (1/1) Accurately ripped

==== Log checksum 8889EB460D8F5D66E6722C43D957E94F7EF692883C2990449CE3C8D760B7450C ====

foobar2000 1.2.6 / Dynamic Range Meter 1.1.1
log date: 2015-09-12 08:19:48

Analyzed: Various / Come Together - A Soul & Jazz Tribute to the Beatles

DR Peak RMS Duration Track

DR10 -0.33 dB -11.34 dB 2:34 01-Herbie Mann and Tomiko Jones/Day Tripper
DR10 -0.20 dB -11.75 dB 3:29 02-Little Richard/I Saw Her Standing There
DR10 -0.20 dB -12.34 dB 7:57 03-Clarence Wheeler and the Enforcers/Hey Jude
DR10 -0.22 dB -13.08 dB 3:05 04-Ella Fitzgerald/Got To Get You Into My Life
DR10 -0.62 dB -13.74 dB 3:30 05-Aretha Franklin/Let It Be
DR10 -0.20 dB -14.03 dB 4:58 06-Charles Wright/Here Comes The Sun
DR7 -0.27 dB -9.81 dB 2:44 07-Arif Martin/Glass onion
DR10 -1.88 dB -13.64 dB 3:10 08-The Meters/Come Together
DR10 -1.49 dB -14.95 dB 2:44 09-Carmin McCrae/Carry That Weight
DR8 -1.82 dB -12.58 dB 3:10 10-Black Heat/Drive My Car
DR11 -0.20 dB -13.92 dB 2:25 11-King Curtis/And I Love Her
DR12 -0.20 dB -14.77 dB 3:36 12-Wade Marcus/Something
DR11 -1.04 dB -15.84 dB 3:36 13-Aretha Franklin/A Long and Winding Road
DR9 -0.73 dB -11.51 dB 4:02 14-David Fathead Newman/Yesterday

Number of tracks: 14
Official DR value: DR10

Samplerate: 44100 Hz
Channels: 2
Bits per sample: 16
Bitrate: 861 kbps
Codec: FLAC

[CUETools log; Date: 12.09.2015 8:19:41; Version: 2.1.5]
[CTDB TOCID: .nGftcW0wvV7_vcDN4QkuIL9SqM-] found.
Track | CTDB Status
1 | (1/1) Accurately ripped
2 | (1/1) Accurately ripped
3 | (1/1) Accurately ripped
4 | (1/1) Accurately ripped
5 | (1/1) Accurately ripped
6 | (1/1) Accurately ripped
7 | (1/1) Accurately ripped
8 | (1/1) Accurately ripped
9 | (1/1) Accurately ripped
10 | (1/1) Accurately ripped
11 | (1/1) Accurately ripped
12 | (1/1) Accurately ripped
13 | (1/1) Accurately ripped
14 | (1/1) Accurately ripped
[AccurateRip ID: 001b54b1-011fc43f-bf0bf20e] found.
Track [ CRC | V2 ] Status
01 [3a7b521e|e10194df] (1+0/1) Accurately ripped
02 [66928dfd|f8d43fe4] (1+0/1) Accurately ripped
03 [ef6f8957|1417b384] (1+0/1) Accurately ripped
04 [90bef8cf|3f371647] (1+0/1) Accurately ripped
05 [a9988889|0f877faf] (1+0/1) Accurately ripped
06 [f80bad03|11c8b048] (1+0/1) Accurately ripped
07 [6c4a51c2|bbaa18b6] (1+0/1) Accurately ripped
08 [4f214cbc|d0da0721] (1+0/1) Accurately ripped
09 [23d0bbff|d9016344] (1+0/1) Accurately ripped
10 479bb99|5ccb7378 (0+0/1) No match
11 [de08a110|2f6125c1] (1+0/1) Accurately ripped
12 [e82cb428|2f988fc7] (1+0/1) Accurately ripped
13 [872036e1|08e83fd9] (0+0/1) No match
14 4b45636|755d5eeb (0+0/1) No match

Track Peak [ CRC32 ] [W/O NULL] [ LOG ]
-- 97,7 [A9CB55AD] [F6C2B5B9] CRC32
01 96,3 [DF23EC71] [F6B11ED9]
02 97,7 [65E54273] [5506DD32]
03 97,7 [E337EC09] [F66875CB]
04 97,4 [D671BAAB] [DCE63DA3]
05 93,0 [AFDC7F94] [8D9FD4AD]
06 97,7 [5A4001F6] [D501E1C2]
07 96,9 [F92A3920] [0CAC92B1]
08 80,5 [ADFA280B] [421DE75F]
09 84,2 [A830E20B] [15C7AE52]
10 81,0 [64E45342] [A27E7E3B]
11 97,7 [060CEF28] A8C3B3C
12 97,7 [6B7DD63A] [CDFD7026]
13 88,6 [2460BBD7] [CB3A6DC4]
14 91,9 [D21DC5E6] [46CCF511]

http://i66.fastpic.ru/big/2015/0914/5b/4bfecef2422a4020a68292762be1105b.jpg

http://i71.fastpic.ru/big/2015/0914/34/777d9c320b2c8d71ba4a1068243d0234.jpg

All thanks go to Boris1


DOWNLOAD LINKS:
Buy Premium To Support Me & Get Resumable Support & Max Speed


Links are Interchangeable - No Password - Single Extraction

VA - Come Together: A Soul/Jazz Tribute To The Beatles (2005) Fast Download



 
 
 
Dear visitor, you went to the site as an unregistered user. We encourage you to register or enter the site under your name.
 
   
 
 (Votes #: 0)