2013Zone For Latest Downloads

 
     
 
Legal Downloads » Music » Masters Of Funk & Soul - The Sampler (2004)
Menu
Home Applications
Games Movies
Music TV Shows
Torrents Graphics

Sitemap

RSS
 
Advanced Search
Last News
Site Info
Top Contributors:
  1    supper88 32766
  2    admin 32751
  3    Whisky 10080
  4    Shark_ 8911
  5    creativelivenew 8706
  6    whathesupa 2799
  7    candymypost 840
  8    hvnteam 629
  9    vuong87 3


Articles:
  This Hour: 0
  Today: 0
  This Month: 35
  All Time: 515454


Torrents:
  Today: 0
  Yesterday: 0
  All Time: 156715


Membership:
  Registered Today :0
  This Hour:0
  This Month:0
  Total:14
  Banned:1

{online}
{inform_torrent}
Friend:
Full Download Scripts
Torrent Download
Trend
Trend

Search In Site

Music : Masters Of Funk & Soul - The Sampler (2004)
 
http://i60.fastpic.ru/big/2015/0507/69/c43fa7cbb5f6d3b4400400f86e164869.jpg

Masters Of Funk & Soul - The Sampler (2004)
EAC Rip | FLAC (Tracks) +CUE, LOG | 550 MB | Covers Included
R&B | Label: EMI | Catalog Number: 072434731272


Exact Audio Copy V1.0 beta 3 from 29. August 2011

EAC extraction logfile from 23. April 2015, 16:53

Various / Masters Of Funk & Soul: The Sampler

Used drive : GENERIC CDRCB05 Adapter: 4 ID: 0

Read mode : Secure
Utilize accurate stream : Yes
Defeat audio cache : Yes
Make use of C2 pointers : No

Read offset correction

: 102
Overread into Lead-In and Lead-Out : No
Fill up missing offset samples with silence : Yes
Delete leading and trailing silent blocks : No
Null samples used in CRC calculations : Yes
Used interface
: Native Win32 interface for Win NT & 2000
Gap handling
: Appended to previous track

Used output format : User Defined Encoder
Selected bitrate : 1024 kBit/s
Quality : High
Add ID3 tag : No
Command line compressor : C:\Program Files\FLAC\flac.exe
Additional command line options : -8 -V -T "ARTIST=%artist%" -T "TITLE=%title%" -T "ALBUM=%albumtitle%" -T "DATE=%year%" -T "TRACKNUMBER=%tracknr%" -T "GENRE=%genre%" -T "PERFORMER=%albuminterpret%" -T "COMPOSER=%composer%" %haslyrics%--tag-from-file=LYRICS="%lyricsfile%"%haslyrics% -T "ALBUMARTIST=%albumartist%" -T "DISCNUMBER=%cdnumber%" -T "TOTALDISCS=%totalcds%" -T "TOTALTRACKS=%numtracks%" -T "COMMENT=%comment%" %source% -o %dest%

TOC of the extracted CD Track | Start | Length | Start sector | End sector
1 | 0:00.33 | 5:58.37 | 33 | 26919 2 | 5:58.70 | 5:47.66 | 26920 | 53010 3 | 11:46.61 | 5:18.73 | 53011 | 76933 4 | 17:05.59 | 4:48.63 | 76934 | 98596 5 | 21:54.47 | 5:36.06 | 98597 | 123802 6 | 27:30.53 | 5:07.66 | 123803 | 146893 7 | 32:38.44 | 6:17.56 | 146894 | 175224 8 | 38:56.25 | 3:47.63 | 175225 | 192312 9 | 42:44.13 | 5:54.10 | 192313 | 218872
10 | 48:38.23 | 5:27.05 | 218873 | 243402
11 | 54:05.28 | 6:53.43 | 243403 | 274420
12 | 60:58.71 | 5:13.21 | 274421 | 297916
13 | 66:12.17 | 6:22.14 | 297917 | 326580
14 | 72:34.31 | 4:28.52 | 326581 | 346732

Track 1 Filename H:\0\..................00\post\Masters Of Funk & Soul- The Sampler (2004)\01 - The Brooklyn, Bronx & Queens Band - On The Beat.wav Pre-gap length 0:00:02.33 Peak level 100.0 %
Extraction speed 2.6 X
Track quality 100.0 %
Test CRC DA5A970F
Copy CRC DA5A970F
Track not present in AccurateRip database
Copy OK

Track 2 Filename H:\0\..................00\post\Masters Of Funk & Soul- The Sampler (2004)\02 - High Fashion - Feelin' Lucky Lately.wav Pre-gap length 0:00:02.19 Peak level 100.0 %
Extraction speed 2.8 X
Track quality 100.0 %
Test CRC 9C38D754
Copy CRC 9C38D754
Track not present in AccurateRip database
Copy OK

Track 3 Filename H:\0\..................00\post\Masters Of Funk & Soul- The Sampler (2004)\03 - Mystic Merlin - Mr. Magician.wav Pre-gap length 0:00:02.32 Peak level 100.0 %
Extraction speed 3.1 X
Track quality 100.0 %
Test CRC 124EE905
Copy CRC 124EE905
Track not present in AccurateRip database
Copy OK

Track 4 Filename H:\0\..................00\post\Masters Of Funk & Soul- The Sampler (2004)\04 - George Clinton - Atomic Dog.wav Pre-gap length 0:00:02.20 Peak level 100.0 %
Extraction speed 2.9 X
Track quality 99.9 %
Test CRC 8B1C06CF
Copy CRC 8B1C06CF
Track not present in AccurateRip database
Copy OK

Track 5 Filename H:\0\..................00\post\Masters Of Funk & Soul- The Sampler (2004)\05 - Noel Pointer - Play The Part.wav Pre-gap length 0:00:02.22 Peak level 100.0 %
Extraction speed 3.5 X
Track quality 100.0 %
Test CRC B6FD783F
Copy CRC B6FD783F
Track not present in AccurateRip database
Copy OK

Track 6 Filename H:\0\..................00\post\Masters Of Funk & Soul- The Sampler (2004)\06 - KC And The Sunshine Band - That's The Way (I Like It).wav Pre-gap length 0:00:02.42 Peak level 100.0 %
Extraction speed 3.7 X
Track quality 100.0 %
Test CRC 59917526
Copy CRC 59917526
Track not present in AccurateRip database
Copy OK

Track 7 Filename H:\0\..................00\post\Masters Of Funk & Soul- The Sampler (2004)\07 - Brass Construction - Movin' (Edited Version).wav Pre-gap length 0:00:02.34 Peak level 100.0 %
Extraction speed 4.1 X
Track quality 100.0 %
Test CRC 5CBDA729
Copy CRC 5CBDA729
Track not present in AccurateRip database
Copy OK

Track 8 Filename H:\0\..................00\post\Masters Of Funk & Soul- The Sampler (2004)\08 - Dayton - Dank.wav Pre-gap length 0:00:02.15 Peak level 100.0 %
Extraction speed 4.0 X
Track quality 100.0 %
Test CRC 724774F7
Copy CRC 724774F7
Track not present in AccurateRip database
Copy OK

Track 9 Filename H:\0\..................00\post\Masters Of Funk & Soul- The Sampler (2004)\09 - Sun - Radiation Level.wav Pre-gap length 0:00:00.46 Peak level 100.0 %
Extraction speed 4.4 X
Track quality 100.0 %
Test CRC 3BFCDBCB
Copy CRC 3BFCDBCB
Track not present in AccurateRip database
Copy OK

Track 10 Filename H:\0\..................00\post\Masters Of Funk & Soul- The Sampler (2004)\10 - The Gene Dunlap Band - When You're Hot.wav Pre-gap length 0:00:02.16 Peak level 100.0 %
Extraction speed 4.5 X
Track quality 100.0 %
Test CRC E5C017CB
Copy CRC E5C017CB
Track not present in AccurateRip database
Copy OK

Track 11 Filename H:\0\..................00\post\Masters Of Funk & Soul- The Sampler (2004)\11 - Maze Featuring Frankie Beverly - Southern Girl.wav Pre-gap length 0:00:02.09 Peak level 100.0 %
Extraction speed 4.8 X
Track quality 100.0 %
Test CRC B4EC194D
Copy CRC B4EC194D
Track not present in AccurateRip database
Copy OK

Track 12 Filename H:\0\..................00\post\Masters Of Funk & Soul- The Sampler (2004)\12 - Cold Fire - H.F.R.S.wav Pre-gap length 0:00:02.18 Peak level 100.0 %
Extraction speed 4.8 X
Track quality 100.0 %
Test CRC B2AEA2C5
Copy CRC B2AEA2C5
Track not present in AccurateRip database
Copy OK

Track 13 Filename H:\0\..................00\post\Masters Of Funk & Soul- The Sampler (2004)\13 - Gary Bartz (Featuring Syreeta) - Music Is My Sanctuary.wav Pre-gap length 0:00:00.63 Peak level 100.0 %
Extraction speed 5.1 X
Track quality 100.0 %
Test CRC CD81E545
Copy CRC CD81E545
Track not present in AccurateRip database
Copy OK

Track 14 Filename H:\0\..................00\post\Masters Of Funk & Soul- The Sampler (2004)\14 - Eddie Henderson - Say You Will.wav Pre-gap length 0:00:02.14 Peak level 100.0 %
Extraction speed 5.0 X
Track quality 100.0 %
Test CRC BD663F4D
Copy CRC BD663F4D
Track not present in AccurateRip database
Copy OK

None of the tracks are present in the AccurateRip database

No errors occurred

End of status report

==== Log checksum 625EC9707B0F3D810C91E3A5F202ED3FBF7241C228F3173093438B2FB2D94C06 ====

Tracklist:
01. The Brooklyn, Bronx & Queens Band - On The Beat
02. High Fashion - Feelin' Lucky Lately
03. Mystic Merlin - Mr. Magician
04. George Clinton - Atomic Dog
05. Noel Pointer - Play The Part
06. KC And The Sunshine Band - That's The Way (I Like It)
07. Brass Construction - Movin' (Edited Version)
08. Dayton - Dank
09. Sun - Radiation Level
10. The Gene Dunlap Band - When You're Hot
11. Maze Featuring Frankie Beverly - Southern Girl
12. Cold Fire - H.F.R.S
13. Gary Bartz - Music Is My Sanctuary
14. Eddie Henderson - Say You Will
DOWNLOAD LINKS:
Buy Premium To Support Me & Get Resumable Support & Max Speed


Links are Interchangeable - No Password - Single Extraction

Masters Of Funk & Soul - The Sampler (2004) Fast Download



 
 
 
Dear visitor, you went to the site as an unregistered user. We encourage you to register or enter the site under your name.
 
   
 
 (Votes #: 0)